logo

Tiger Zinda Hai 2017 720p PRE DVDRip x264 AAC [Moviezworldz]

  • Category Movies
  • Type Bollywood
  • Language Hindi
  • Total size 1.3 GB
  • Uploaded By moviezworldz
  • Downloads 21137
  • Last checked 4 days ago
  • Date uploaded 3 months ago
  • Seeders 17
  • Leechers 0

Tiger Zinda Hai

ThrillerAction

RAW agent Tiger/Avinash Singh Rathore returns from the dead to take on an international terrorist organisation but this time he has his wife Zoya by his side.

Infohash : 816BC6BCAFB05A687B21DDF817358D95B35E6D21


Download Tiger Zinda Hai 2017 720p PRE DVDRip x264 AAC [Moviezworldz] Torrent

General
Format : Matroska
Format version : Version 4 / Version 2
File size : 1.33 GiB
Duration : 2 h 27 min
Overall bit rate : 1 299 kb/s

Video
ID : 1
Format : AVC
Format/Info : Advanced Video Codec
Format profile : [email protected]
Format settings : CABAC / 4 Ref Frames
Format settings, CABAC : Yes
Format settings, ReFrames : 4 frames
Codec ID : V_MPEG4/ISO/AVC
Duration : 2 h 27 min
Bit rate : 1 200 kb/s
Width : 1 280 pixels
Height : 534 pixels
Display aspect ratio : 2.40:1
Frame rate mode : Constant
Frame rate : 25.000 FPS
Color space : YUV
Chroma subsampling : 4:2:0
Bit depth : 8 bits
Scan type : Progressive
Bits/(Pixel*Frame) : 0.070
Stream size : 1.23 GiB (92%)
Writing library : x264 core 148 r2643 5c65704
Default : Yes
Forced : No

Audio
ID : 2
Format : AAC
Format/Info : Advanced Audio Codec
Format profile : LC
Codec ID : A_AAC-2
Duration : 2 h 27 min
Bit rate : 96.0 kb/s
Channel(s) : 2 channels
Channel positions : Front: L R
Sampling rate : 44.1 kHz
Frame rate : 43.066 FPS (1024 SPF)
Compression mode : Lossy
Stream size : 101 MiB (7%)
Default : Yes
Forced : No





Download Tiger Zinda Hai 2017 720p PRE DVDRip x264 AAC [Moviezworldz] Torrent
Download Tiger Zinda Hai 2017 720p PRE DVDRip x264 AAC [Moviezworldz] Torrent
Download Tiger Zinda Hai 2017 720p PRE DVDRip x264 AAC [Moviezworldz] Torrent
Download Tiger Zinda Hai 2017 720p PRE DVDRip x264 AAC [Moviezworldz] Torrent
Download Tiger Zinda Hai 2017 720p PRE DVDRip x264 AAC [Moviezworldz] Torrent
Download Tiger Zinda Hai 2017 720p PRE DVDRip x264 AAC [Moviezworldz] Torrent

Files:

Tiger Zinda Hai 2017 720p PRE DVDRip x264 AAC
  • Tiger Zinda Hai 2017 720p PRE DVDRip x264 AAC.mkv (1.3 GB)

Comments

Code:

  • http://ipv4.tracker.harry.lu/announce
  • http://ipv4.tracker.harry.lu:80/announce
  • http://tracker.electro-torrent.pl/announce
  • http://tracker.electro-torrent.pl:80/announce
  • http://retracker.mgts.by:80/announce
  • http://pt.lax.mx:80/announce
  • http://tracker.torrentyorg.pl:80/announce
  • http://163.172.180.68/announce
  • http://82.209.230.66/announce
  • http://107.174.238.55:80/announce
  • http://t.nyaatracker.com/announce
  • http://t.nyaatracker.com:80/announce
  • udp://tracker.coppersurfer.tk:6969/announce
  • udp://tracker.coppersurfer.tk:80/announce
  • udp://tracker.coppersurfer.tk:6969