logo

Professor Marston And The Wonder Women 2017 1080p BluRay 6CH AAC ...

  • Category Movies
  • Type h.264/x264
  • Language English
  • Total size 1.8 GB
  • Uploaded By samcode4u
  • Downloads 100
  • Last checked 1 day ago
  • Date uploaded 2 months ago
  • Seeders 11
  • Leechers 2

Professor Marston & the Wonder Wome...

History

The unconventional life of Dr. William Marston, the Harvard psychologist and inventor who helped invent the modern lie detector test and created Wonder Woman in 1941.

Infohash : 9613F5D9443086EC72A6212B75B1217F2BC39B19

Download Professor Marston And The Wonder Women 2017 1080p BluRay 6CH AAC x264 - EiE Torrent

Download Professor Marston And The Wonder Women 2017 1080p BluRay 6CH AAC x264 - EiE Torrent

Download Professor Marston And The Wonder Women 2017 1080p BluRay 6CH AAC x264 - EiE Torrent
Click on the link to see Screenshot:

http://lensdump.com/i/oVCH3

http://lensdump.com/i/oV6EF

http://lensdump.com/i/oVJX0

http://lensdump.com/i/oVVgD




Code:


Video
ID : 1
Format : AVC
Format/Info : Advanced Video Codec
Format settings : CABAC / 4 Ref Frames
Format settings, CABAC : Yes
Format settings, RefFrames : 4 frames
Codec ID : avc1
Codec ID/Info : Advanced Video Coding
Duration : 1 h 48 min
Bit rate : 2 152 kb/s
Maximum bit rate : 17.8 Mb/s
Width : 1 912 pixels
Height : 800 pixels
Display aspect ratio : 2.40:1
Frame rate mode : Constant
Frame rate : 23.976
Color space : YUV
Chroma subsampling : 4:2:0
Bit depth : 8 bits
Scan type : Progressive
Bits/(Pixel*Frame) : 0.059
Stream size : 1.63 GiB (91%)

Audio
ID : 2
Format : AAC
Format/Info : Advanced Audio Codec
Format profile : LC
Codec ID : mp4a-40-2
Duration : 1 h 48 min
Bit rate mode : Variable
Bit rate : 218 kb/s
Maximum bit rate : 309 kb/s
Channel(s) : 6 channels
Channel positions : Front: L C R, Side: L R, LFE
Sampling rate : 48.0 kHz
Frame rate : 46.875 FPS
Compression mode : Lossy
Stream size : 169 MiB (9%)
Language : English


Files:

Professor Marston And The Wonder Women 2017 1080p BluRay 6CH AAC x264 - EiE
  • Read Me.txt (0.8 KB)
  • ECLiPSE.txt (14.0 KB)
  • Professor Marston And The Wonder Women 2017.srt (86.6 KB)
  • Professor Marston And The Wonder Women 2017.mp4 (1.8 GB)

There are currently no comments. Feel free to leave one :)

Code:

  • udp://tracker.coppersurfer.tk:80/announce
  • udp://9.rarbg.me:2770/announce
  • udp://9.rarbg.to:2720/announce
  • udp://eddie4.nl:6969/announce
  • udp://p4p.arenabg.com:1337/announce
  • udp://shadowshq.yi.org:6969/announce
  • udp://thetracker.org:80/announce
  • udp://tracker.grepler.com:6969/announce
  • udp://tracker.internetwarriors.net:1337/announce
  • udp://tracker.opentrackr.org:1337/announce
  • udp://tracker.pirateparty.gr:6969/announce
  • udp://tracker.torrent.eu.org:451/announce
  • udp://tracker.vanitycore.co:6969/announce
  • udp://tracker.zer0day.to:1337/announce