logo

Mother! - Madre! (2017) Jennifer Lawrence.H264.italian.english.Ac...

  • Category Movies
  • Type h.264/x264
  • Language English
  • Total size 1.8 GB
  • Uploaded By robbyrs
  • Downloads 901
  • Last checked 1 hour ago
  • Date uploaded 3 days ago
  • Seeders 213
  • Leechers 45

Infohash : 53FA83102CC1AEF9C758678C203FDD65B5ECF67D

Mother! - Madre! (2017) Jennifer Lawrence.H264.italian.english.Ac3-5.1.sub.ita.eng.MIRCrew

Download Mother! - Madre! (2017) Jennifer Lawrence.H264.italian.english.Ac3-5.1.sub.ita.eng.MIRCrew Torrent
NO FOUND ONLY ORIGINAL RELEASE

Download Mother! - Madre! (2017) Jennifer Lawrence.H264.italian.english.Ac3-5.1.sub.ita.eng.MIRCrew Torrent

My release is always in double track audio italian and Original audio
for select it use VLC or dvd player home
not use wmp

Madre! - Mother! (2017)

Download Mother! - Madre! (2017) Jennifer Lawrence.H264.italian.english.Ac3-5.1.sub.ita.eng.MIRCrew Torrent

Download Mother! - Madre! (2017) Jennifer Lawrence.H264.italian.english.Ac3-5.1.sub.ita.eng.MIRCrew Torrent

Download Mother! - Madre! (2017) Jennifer Lawrence.H264.italian.english.Ac3-5.1.sub.ita.eng.MIRCrew Torrent


DATA USCITA: 28 settembre 2017
GENERE: Horror, Drammatico, Thriller
ANNO: 2017
REGIA: Darren Aronofsky

PAESE: USA
DURATA: 121 Min
DISTRIBUZIONE: 20th Century Fox


Download Mother! - Madre! (2017) Jennifer Lawrence.H264.italian.english.Ac3-5.1.sub.ita.eng.MIRCrew Torrent

Jennifer Lawrence, Javier Bardem, Domhnall Gleeson, Ed Harris, Michelle Pfeiffer, Brian Gleeson, Jovan Adepo, Emily Hampshire

Download Mother! - Madre! (2017) Jennifer Lawrence.H264.italian.english.Ac3-5.1.sub.ita.eng.MIRCrew Torrent

Madre!, il nuovo film di Darren Aronofsky, racconta di un poeta in crisi creativa che vive con la giovane moglie in una casa isolata che era quella della sua infanzia. Lei si occupa di lui in tutto e per tutto, e ha rimesso in sesto la villa con le sue mani dopo che un incendio l'aveva distrutta quasi completamente..................

Download Mother! - Madre! (2017) Jennifer Lawrence.H264.italian.english.Ac3-5.1.sub.ita.eng.MIRCrew Torrent

Amidst a wild flat meadow encircled by an Edenic lush forest, a couple has cocooned itself in a secluded grand mansion that was not so long ago burned to the ground, devotedly restored by the supportive wife. Within this safe environment, the once famous middle-aged poet husband is desirous of creating his magnum opus, however, he seems unable to break out of the persistent creative rut that haunts him.................

Download Mother! - Madre! (2017) Jennifer Lawrence.H264.italian.english.Ac3-5.1.sub.ita.eng.MIRCrew Torrent

Download Mother! - Madre! (2017) Jennifer Lawrence.H264.italian.english.Ac3-5.1.sub.ita.eng.MIRCrew Torrent
Download Mother! - Madre! (2017) Jennifer Lawrence.H264.italian.english.Ac3-5.1.sub.ita.eng.MIRCrew Torrent
Download Mother! - Madre! (2017) Jennifer Lawrence.H264.italian.english.Ac3-5.1.sub.ita.eng.MIRCrew Torrent
Download Mother! - Madre! (2017) Jennifer Lawrence.H264.italian.english.Ac3-5.1.sub.ita.eng.MIRCrew Torrent

Download Mother! - Madre! (2017) Jennifer Lawrence.H264.italian.english.Ac3-5.1.sub.ita.eng.MIRCrew Torrent

[spoiler]
General
Unique ID : 35724553953238831214871479631910206309 (0x1AE04C7F85CFC86541CDFBBACDF6FB65)
Complete name : Madre! - Mother! (2017).H264.ita.eng.sub.ita.eng-MIRCrew\Madre! - Mother! (2017).H264.ita.eng.sub.ita.eng-MIRCrew.mkv
Format : Matroska
Format version : Version 2
File size : 1.75 GiB
Duration : 2h 1mn
Overall bit rate : 2 071 Kbps
Movie name : MIRCrew
Encoded date : UTC 2018-01-13 16:02:39
Writing application : Lavf54.63.100
Writing library : Lavf54.63.100
COPYRIGHT : robbyrs

Video
ID : 1
Format : AVC
Format/Info : Advanced Video Codec
Format profile : [email protected]
Format settings, CABAC : Yes
Format settings, ReFrames : 2 frames
Codec ID : V_MPEG4/ISO/AVC
Duration : 2h 1mn
Bit rate : 1 300 Kbps
Width : 720 pixels
Height : 304 pixels
Display aspect ratio : 2.40:1
Frame rate mode : Variable
Frame rate : 23.976 fps
Color space : YUV
Chroma subsampling : 4:2:0
Bit depth : 8 bits
Scan type : Progressive
Bits/(Pixel*Frame) : 0.248
Stream size : 1.07 GiB (61%)
Writing library : x264 core 130 r2273
Encoding settings : cabac=1 / ref=2 / deblock=1:0:0 / analyse=0x1:0x131 / me=hex / subme=7 / psy=1 / psy_rd=1.00:0.00 / mixed_ref=0 / me_range=16 / chroma_me=1 / trellis=1 / 8x8dct=0 / cqm=0 / deadzone=21,11 / fast_pskip=1 / chroma_qp_offset=-2 / threads=3 / lookahead_threads=1 / sliced_threads=0 / nr=0 / decimate=1 / interlaced=0 / bluray_compat=0 / constrained_intra=0 / bframes=3 / b_pyramid=0 / b_adapt=1 / b_bias=0 / direct=3 / weightb=1 / open_gop=0 / weightp=2 / keyint=230 / keyint_min=23 / scenecut=40 / intra_refresh=0 / rc_lookahead=40 / rc=abr / mbtree=1 / bitrate=1300 / ratetol=1.0 / qcomp=0.60 / qpmin=10 / qpmax=69 / qpstep=4 / vbv_maxrate=24000 / vbv_bufsize=24000 / nal_hrd=none / ip_ratio=1.40 / aq=1:1.00
Language : Italian
Default : Yes
Forced : No
DURATION : 02:01:11.723000000
NUMBER_OF_FRAMES : 174347
NUMBER_OF_BYTES : 8053512682
_STATISTICS_WRITING_APP : mkvmerge v15.0.0 ('Duel with the Devil') 64-bit
_STATISTICS_WRITING_DATE_UTC : 2018-01-11 00:32:40
_STATISTICS_TAGS : BPS DURATION NUMBER_OF_FRAMES NUMBER_OF_BYTES

Audio #1
ID : 2
Format : AC-3
Format/Info : Audio Coding 3
Mode extension : CM (complete main)
Codec ID : A_AC3
Duration : 2h 1mn
Bit rate mode : Constant
Bit rate : 384 Kbps
Channel(s) : 6 channels
Channel positions : Front: L C R, Side: L R, LFE
Sampling rate : 48.0 KHz
Bit depth : 16 bits
Compression mode : Lossy
Delay relative to video : 1mn 5s
Stream size : 333 MiB (19%)
Language : Italian
Default : Yes
Forced : No
DURATION : 02:01:11.904000000
NUMBER_OF_FRAMES : 227247
NUMBER_OF_BYTES : 349051392
_STATISTICS_WRITING_APP : mkvmerge v15.0.0 ('Duel with the Devil') 64-bit
_STATISTICS_WRITING_DATE_UTC : 2018-01-11 00:32:40
_STATISTICS_TAGS : BPS DURATION NUMBER_OF_FRAMES NUMBER_OF_BYTES

Audio #2
ID : 3
Format : AC-3
Format/Info : Audio Coding 3
Mode extension : CM (complete main)
Codec ID : A_AC3
Duration : 2h 1mn
Bit rate mode : Constant
Bit rate : 384 Kbps
Channel(s) : 6 channels
Channel positions : Front: L C R, Side: L R, LFE
Sampling rate : 48.0 KHz
Bit depth : 16 bits
Compression mode : Lossy
Delay relative to video : 1mn 5s
Stream size : 333 MiB (19%)
Language : English
Default : No
Forced : No
DURATION : 02:01:11.776000000
NUMBER_OF_FRAMES : 227243
NUMBER_OF_BYTES : 581742080
_STATISTICS_WRITING_APP : mkvmerge v15.0.0 ('Duel with the Devil') 64-bit
_STATISTICS_WRITING_DATE_UTC : 2018-01-11 00:32:40
_STATISTICS_TAGS : BPS DURATION NUMBER_OF_FRAMES NUMBER_OF_BYTES

Menu
00:00:00.000 : :Chapter 01
00:06:22.507 : :Chapter 02
00:10:21.078 : :Chapter 03
00:15:59.500 : :Chapter 04
00:21:37.921 : :Chapter 05
00:24:59.414 : :Chapter 06
00:31:31.055 : :Chapter 07
00:38:29.223 : :Chapter 08
00:44:57.027 : :Chapter 09
00:49:35.764 : :Chapter 10
00:53:43.303 : :Chapter 11
01:02:19.694 : :Chapter 12
01:08:24.809 : :Chapter 13
01:16:52.190 : :Chapter 14
01:20:30.909 : :Chapter 15
01:28:26.884 : :Chapter 16
01:38:08.716 : :Chapter 17
01:45:52.637 : :Chapter 18
01:49:48.623 : :Chapter 19
01:56:21.182 : :Chapter 20
02:01:11.514 : :Chapter 21


[/spoiler]



Files:

Madre! - Mother! (2017).H264.ita.eng.sub.ita.eng-MIRCrew
  • Madre! - Mother! (2017).H264.ita.eng.sub.ita.eng.-MIRCrew.eng.srt (98.4 KB)
  • Madre! - Mother! (2017).H264.ita.eng.sub.ita.eng-MIRCrew.mkv (1.8 GB)
  • Madre! - Mother!(2017).H264.ita.eng.sub.ita.eng-MIRCrew.ita.srt (75.2 KB)

There are currently no comments. Feel free to leave one :)

Code:

  • udp://tracker.coppersurfer.tk:6969/announce
  • udp://tracker.opentrackr.org:1337/announce
  • udp://tracker.pirateparty.gr:6969/announce
  • udp://tracker.zer0day.to:1337/announce
  • udp://p4p.arenabg.com:1337/announce
  • udp://p4p.arenabg.ch:1337/announce
  • udp://eddie4.nl:6969/announce
  • udp://tracker.leechers-paradise.org:6969/announce
  • udp://9.rarbg.me:2740/announce
  • udp://9.rarbg.to:2740/announce
  • udp://9.rarbg.com:2710/announce
  • http://bigfoot1942.sektori.org:6969/announce
  • udp://tracker.internetwarriors.net:1337/announce
  • udp://oscar.reyesleon.xyz:6969/announce
  • udp://tracker.cyberia.is:6969/announce